老 王
老 王 25 May 2020
37617
watermark logo

中高艺 97-丹丹和蔚蓝 37.7 MB

 47846 浏览
中高艺

Stream #0:0(und): Video: h264 (High) (avc1 / 0x31637661), yuv420p, 640x480 [SAR 1:1 DAR 4:3], 343 kb/s, 21 fps, 21 tbr, 10752 tbn, 42 tbc (default) Stream #0:1(und): Audio: aac (HE-AAC) (mp4a / 0x6134706D), 48000 Hz, stereo, fltp, 16 kb/s (default)

显示更多
0 评论 sort 排序方式

下一个