老 王
老 王 25 May 2020
37617
watermark logo

美女自拍 664-刘点点dazzling 浴室自拍 1.15 MB

 15521 浏览

Stream #0:0(und): Video: h264 (High) (avc1 / 0x31637661), yuv420p, 640x480 [SAR 1:1 DAR 4:3], 233 kb/s, 21 fps, 21 tbr, 10752 tbn, 42 tbc (default) Stream #0:1(und): Audio: aac (HE-AAC) (mp4a / 0x6134706D), 48000 Hz, stereo, fltp, 16 kb/s (default)

显示更多
0 评论 sort 排序方式

下一个