老 王
老 王 25 May 2020
37617
watermark logo

Showgirl 99-2013Tokyo Game Show 6.53 MB

 90656 浏览
Showgirl

Stream #0:0(und): Video: h264 (High) (avc1 / 0x31637661), yuv420p, 960x540 [SAR 1:1 DAR 16:9], 864 kb/s, 25 fps, 25 tbr, 12800 tbn, 50 tbc (default) Stream #0:1(und): Audio: aac (HE-AAC) (mp4a / 0x6134706D), 48000 Hz, stereo, fltp, 63 kb/s (default)

显示更多
0 评论 sort 排序方式

下一个